Skip to main content

Cracker Live at Pappy & Harriet's on 2011-09-15

by Cracker



01. intro
02. I Sold the Arabs the Moon
03. Raise 'Em Up On Honey
04. Lucky
05. San Bernardino Boy
06. Been Around the World
07. Friends
08. Hey Brett
09. One Fine Day
10. Dr Bernice
11. Everybody Gets One For Free
12. Wedding Day
13. It Was A Very Good Year
14. Reasons To Quit
15. Low
16. The Man In Me
17. St. Cajetan
18. All Her Favorite Fruit
19. aftershow music
20. recordist's signout


Collection Cracker
Band/Artist Cracker
Venue Pappy & Harriet's
Location Pioneertown, CA USA

Source sbd + KM140s
Lineage wav > DP4 > Audacity (tracking) > xACT > FLAC
Taped by morst
Transferred by morst & digitalist0ne

Notes

*** 24-bit high definition audio - NOT for direct CD burning ***
Note - FLAC files are tagged as 2011-09-14 - the 15th is the correct date.

7th Annual Cracker / Camper Van Beethoven Family Reunion Campout

SHNTOOL:
length expanded size cdr WAVE problems fmt ratio filename
0:33.999 9791792 B cxx -- ---xx flac 0.6464 Cracker2011-09-15t01.flac
5:11.676 89762624 B cxx -- ---xx flac 0.6084 Cracker2011-09-15t02.flac
4:58.791 86051948 B cxx -- ---xx flac 0.6788 Cracker2011-09-15t03.flac
4:19.997 74879168 B cxx -- ---xx flac 0.6401 Cracker2011-09-15t04.flac
2:57.865 51225026 B cxx -- ---xx flac 0.6567 Cracker2011-09-15t05.flac
7:06.927 122955128 B cxx -- ---xx flac 0.6358 Cracker2011-09-15t06.flac
4:47.347 82755962 B cxx -- ---xx flac 0.6651 Cracker2011-09-15t07.flac
4:35.598 79372166 B cxx -- ---xx flac 0.6366 Cracker2011-09-15t08.flac
7:04.519 122261462 B cxx -- ---xx flac 0.6594 Cracker2011-09-15t09.flac
6:04.716 105038204 B cxx -- ---xx flac 0.6274 Cracker2011-09-15t10.flac
8:11.392 141521024 B cxx -- ---xx flac 0.6661 Cracker2011-09-15t11.flac
3:39.823 63309158 B cxx -- ---xx flac 0.6650 Cracker2011-09-15t12.flac
4:06.689 71046416 B cxx -- ---xx flac 0.5893 Cracker2011-09-15t13.flac
3:56.733 68179220 B cxx -- ---xx flac 0.6203 Cracker2011-09-15t14.flac
5:07.403 88532156 B cxx -- ---xx flac 0.6865 Cracker2011-09-15t15.flac
4:20.783 75105638 B cxx -- ---xx flac 0.6743 Cracker2011-09-15t16.flac
7:43.772 133566428 B cxx -- ---xx flac 0.6858 Cracker2011-09-15t17.flac
5:34.330 96287030 B cxx -- ---xx flac 0.6625 Cracker2011-09-15t18.flac
0:46.349 13348514 B cxx -- ---xx flac 0.6045 Cracker2011-09-15t19.flac
0:48.361 13928096 B cxx -- ---xx flac 0.6407 Cracker2011-09-15t20.flac
91:57.070 1588917160 B 0.6517 (20 files)

-~-~-~-~-~-~-~-~-~-~-~-~-~-~-~-~-~-~-~-~-~-~-~-~-~-
The Soundscape Preservation Society (Founded 1991)
http://www.iamtypingwithonefinger.com/SPS.html
-~-~-~-~-~-~-~-~-~-~-~-~-~-~-~-~-~-~-~-~-~-~-~-~-~-

Reviews

Reviewer: morst - - September 29, 2011
Subject: thanks xanthene!
fixed that! D'oh! Haste makes waste!?
Reviewer: Xanthene - - September 28, 2011
Subject: Great show but the files are labelled incorrectly
great sounding show - 5 stars.

however some of the files are labelled wrong.

correct:
07. Friends
08. Hey Brett
09. One Fine Day
10. Dr Bernice
DOWNLOAD OPTIONS
In Collection
Cracker
In Collection
Live Music Archive
Uploaded by
morst
on 9/28/2011
Views
1,141
Favorites
2
Reviews
2
PEOPLE ALSO FOUND
Cracker
by Cracker
152
0
0
Source: Sony ECM Mic -> Sony HI-MD -> Sonic Stage -> wav
Cracker
by Cracker
195
0
0
Source: SBD + Audience 4-channel post-production matrix mix
Cracker
327
0
0
Source: Neumann KM140's > Sonosax SX-M2 > Sony PCM-M10 > WAVs @48kHz/24bit + Soundcraft 800B SBD > Edirol R44 > WAVs @48kHz/24bit
Cracker
by Cracker
1,250
0
1
( 1 reviews )
Source: Multichannel SBD+AUD
Cracker
by Cracker
408
0
1
( 1 reviews )
Source: Neumann KM140's > Shure FP24 > Sony PCM-M10 > WAV @24/48
Cracker
by Cracker
99
0
0
Source: audience DAT
Cracker
by Cracker
358
0
0
Source: SBD > Sony PCM-M10 > WAV @24/48
Cracker
by Cracker
1,228
0
1
( 1 reviews )
Source: FM > cass > CD > FLAC
Cracker
by Cracker
220
0
0
Source: internal Mic > Panasonic RX-SR29 Tape Deck > (2) Maxell XLII 90
Cracker
by Cracker
182
0
0
Source: FOB DFC DPA(B&K)4011s->V2->Luminous Synchestra Signature XLRs->AD2K@ 24/48->722